Login
Username:
Password:
[Signup]
[Recover Account]


Browse Torrents

Poll


You must be logged in to view polls



Latest Torrents
Dynasties.S01E05.T...
- [Size: 1.71 GB]

Doctor.Who.2005.S1...
- [Size: 760.84 MB]

Mars.S02E05.iNTERN...
- [Size: 818.68 MB]

Mars.S02E05.HDTV.x...
- [Size: 290.78 MB]

Mars.S02E05.HDTV.x...
- [Size: 291.92 MB]


Torrent Details For "Papillon.2017.1080p.BluRay.x264.DTS-HD.MA.5.1-FGT"

Papillon.2017.1080p.BluRay.x264.DTS-HD.MA.5.1-FGT

Download this torrent | Magnet Download
Health:
Seeds: 68
Leechers: 336
Completed: 286 
Last Checked: 07-11-2018 15:47:52
External Torrent
Update Stats



Images Host

Poster


iMDB
Title: Papillon
Year: 2017
Runtime: 133 minutes
Language: English, Spanish
All Genres: Crime, Drama, Mystery, Thriller
Tagline: The Greatest Escape Adventure Ever Told
Director: Michael Noer
Writing By: Aaron Guzikowski,Henri Charrière,Dalton Trumbo,Lorenzo Semple Jr.,
Produced By: Ram Bergman,Terence Chang,Roger Corbi,Danny Dimbort,Yan Fisher-Romanovsky,Griffin Gould,Sean Guest,Samuel Hadida,Martin Hellstern,Jimmy Jiang,David Koplan,Joshua D. Maurer,Joey McFarland,Christian Mercuri,Malcolm Scerri-Ferrante,Kevan Van Thompson,Andjelija Vlaisavljevic,Patrick Wengler,
Music: David Buckley
Cast:
Charlie Hunnam as Henri 'Papillon' Charrière
Rami Malek as Louis Dega
Tommy Flanagan as Masked Breton
Eve Hewson as Nenette
Nina Senicar as Leper Woman
Roland Møller as Celier
Michael Socha as Julot
Fernanda Diniz as Guajiro Indian
Christopher Fairbank as Jean Castili
Ian Beattie as Toussaint
Trailers:
"Escape"
Trailer
Official Trailer


Watch-Free-HD     Download

Details
Name:Papillon.2017.1080p.BluRay.x264.DTS-HD.MA.5.1-FGT
Description:

Video
ID : 1
Format : AVC
Format/Info : Advanced Video Codec
Format profile : [email protected]
Format settings : CABAC / 5 Ref Frames
Format settings, CABAC : Yes
Format settings, ReFrames : 5 frames
Codec ID : V_MPEG4/ISO/AVC
Duration : 2 h 13 min
Bit rate : 9 058 kb/s
Width : 1 920 pixels
Height : 808 pixels
Display aspect ratio : 2.40:1
Frame rate mode : Constant
Frame rate : 23.976 FPS
Color space : YUV
Chroma subsampling : 4:2:0
Bit depth : 8 bits
Scan type : Progressive
Bits/(Pixel*Frame) : 0.244
Stream size : 8.43 GiB (71%)
Title : Papillon.2017.1080p.BluRay.x264.DTS-HD.MA.5.1-FGT
Writing library : x264 core 157 r2932 303c484
Encoding settings : cabac=1 / ref=5 / deblock=1:0:0 / analyse=0x3:0x133 / me=umh / subme=7 / psy=1 / psy_rd=1.00:0.00 / mixed_ref=1 / me_range=16 / chroma_me=1 / trellis=2 / 8x8dct=1 / cqm=0 / deadzone=21,11 / fast_pskip=0 / chroma_qp_offset=-2 / threads=18 / lookahead_threads=3 / sliced_threads=0 / nr=0 / decimate=1 / interlaced=0 / bluray_compat=0 / constrained_intra=0 / bframes=3 / b_pyramid=2 / b_adapt=1 / b_bias=0 / direct=3 / weightb=1 / open_gop=0 / weightp=2 / keyint=250 / keyint_min=23 / scenecut=40 / intra_refresh=0 / rc_lookahead=50 / rc=2pass / mbtree=1 / bitrate=9058 / ratetol=1.0 / qcomp=0.60 / qpmin=0 / qpmax=69 / qpstep=4 / cplxblur=20.0 / qblur=0.5 / ip_ratio=1.40 / aq=1:1.00
Language : English
Default : Yes
Forced : No

Audio
ID : 2
Format : DTS XLL
Format/Info : Digital Theater Systems
Commercial name : DTS-HD Master Audio
Codec ID : A_DTS
Duration : 2 h 13 min
Bit rate mode : Variable
Bit rate : 3 644 kb/s
Channel(s) : 6 channels
Channel layout : C L R Ls Rs LFE
Sampling rate : 48.0 kHz
Frame rate : 93.750 FPS (512 SPF)
Bit depth : 24 bits
Compression mode : Lossless
Stream size : 3.39 GiB (29%)
Title : Papillon.2017.1080p.BluRay.x264.DTS-HD.MA.5.1-FGT
Language : English
Default : Yes
Forced : No

 http://imagecurl.com/viewer.p...8104062277380593.png

 http://imagecurl.com/viewer.p...2897595163251322.png

 http://imagecurl.com/viewer.p...5947372.png[/center]
Category:Movies > 1080P Bluray
Lang:English  English
Total Size:11.83 GB
Info Hash:a07d5535cc177153dd4aebaf703806a5359a586b
Added By:Scene
Date Added:07-11-2018 15:01:24
Downloads:233

Ratings:Not Yet Rated (Log in to rate it)


Tracker:
http://tracker.trackerfix.com:80/announce


File List: 


Comments

No comments still posted

Top
Copyright 2018 DownloadHD -|- Page Generated In 0.216669 secs.
-|- RSS Feed -|- Feed Info
American Woman (2018 - ongoing) RATING 6.1 / 10 QUALITY | Colección de Minerales en bruto de 50 piezas en cartón grande | FormatFactory